麦创网

帖子
3165
金钱
90807
麦粒
15234
贡献
1066
积分
142821
扫一扫,手机访问本帖
发表于 18/4/23 22:10:42 |显示全部楼层

Freddie Mercury - Best (1997) FLAC
CD.jpg


专辑发行时间:1997
目录编号:FM-10397-B
产地:英国
音乐人:Freddie Mercury 佛莱迪·摩克瑞 (中文)
专辑时长:01:10:57
Front2.jpg


曲目:
01-Mr. Bad Guy (1985)
02-I Was Born To Love You (1985)
03-Living On My Own (1985)
04-The Great Pretender(1992)
05-Let's Turn It On (1992)
06-Made In Heaven (1985)
07-My Love Is Dangerous (1992)
08-In My Defence (1992)
09-Foolin' Around (1992)
10-Love Me Like There's No Tomorrow (1992)
11-Time (1985)
12-Your Kind Of Lover (1992)
13-Man Made Paradise (1985)
14-Barcelona (FM + Caballe 1988)
15-Exercises In Free Love (1992)
16-There Must Be More To Life Than This (1985)
17-Love Kills (1992)
18-Living On My Own (No More Brothers extended mix 1993)

Back封面
Back.jpg



Freddie Mercury - Best  精选集

Freddie Mercury - Best (1997) FLAC下载:

Freddie Mercury - Best - 1997, FLAC .torrent (19.74 KB, 下载次数: 0, 售价: 5 金钱)


麦创网在线商城 更多黑苹果资源等你来! http://memacx.taobao.com
 

帖子
3165
金钱
90807
麦粒
15234
贡献
1066
积分
142821
发表于 18/4/23 22:13:42 |显示全部楼层
抓轨
Exact Audio Copy V1.1 from 23. June 2015

EAC extraction logfile from 5. January 2016, 3:11

Freddie Mercury / Best

Used drive  : TSSTcorpCDDVDW SN-208FB   Adapter: 1  ID: 0

Read mode               : Secure
Utilize accurate stream : Yes
Defeat audio cache      : Yes
Make use of C2 pointers : No

Read offset correction                      : 6
Overread into Lead-In and Lead-Out          : No
Fill up missing offset samples with silence : Yes
Delete leading and trailing silent blocks   : No
Null samples used in CRC calculations       : Yes
Used interface                              : Native Win32 interface for Win NT & 2000

Used output format : Internal WAV Routines
Sample format      : 44.100 Hz; 16 Bit; Stereo


TOC of the extracted CD

     Track |   Start  |  Length  | Start sector | End sector
    ---------------------------------------------------------
        1  |  0:00.30 |  4:05.32 |        30    |    18436   
        2  |  4:05.62 |  3:38.20 |     18437    |    34806   
        3  |  7:44.07 |  3:23.49 |     34807    |    50080   
        4  | 11:07.56 |  3:39.28 |     50081    |    66533   
        5  | 14:47.09 |  3:47.33 |     66534    |    83591   
        6  | 18:34.42 |  4:05.05 |     83592    |   101971   
        7  | 22:39.47 |  3:43.42 |    101972    |   118738   
        8  | 26:23.14 |  3:51.67 |    118739    |   136130   
        9  | 30:15.06 |  3:36.15 |    136131    |   152345   
       10  | 33:51.21 |  3:47.42 |    152346    |   169412   
       11  | 37:38.63 |  3:51.65 |    169413    |   186802   
       12  | 41:30.53 |  4:00.56 |    186803    |   204858   
       13  | 45:31.34 |  4:11.43 |    204859    |   223726   
       14  | 49:43.02 |  5:39.17 |    223727    |   249168   
       15  | 55:22.19 |  3:55.21 |    249169    |   266814   
       16  | 59:17.40 |  3:01.47 |    266815    |   280436   
       17  | 62:19.12 |  3:28.49 |    280437    |   296085   
       18  | 65:47.61 |  5:18.14 |    296086    |   319949   


Range status and errors

Selected range

     Filename D:\777\New folder\Freddie Mercury - Best.wav

     Peak level 100.0 %
     Extraction speed 4.9 X
     Range quality 100.0 %
     Test CRC DCDF064A
     Copy CRC DCDF064A
     Copy OK

No errors occurred

End of status report

---- CUETools DB Plugin V2.1.6

[CTDB TOCID: Sml2mWTPOnaePzbbl99dx_w5.4Y-] found
Submit result: Sml2mWTPOnaePzbbl99dx_w5.4Y- has been confirmed
Track | CTDB Status
  1   | (3/3) Accurately ripped
  2   | (3/3) Accurately ripped
  3   | (3/3) Accurately ripped
  4   | (3/3) Accurately ripped
  5   | (3/3) Accurately ripped
  6   | (3/3) Accurately ripped
  7   | (3/3) Accurately ripped
  8   | (3/3) Accurately ripped
  9   | (3/3) Accurately ripped
10   | (3/3) Accurately ripped
11   | (3/3) Accurately ripped
12   | (3/3) Accurately ripped
13   | (3/3) Accurately ripped
14   | (3/3) Accurately ripped
15   | (3/3) Accurately ripped
16   | (3/3) Accurately ripped
17   | (3/3) Accurately ripped
18   | (3/3) Accurately ripped

麦创网在线商城 更多黑苹果资源等你来! http://memacx.taobao.com
回复

使用道具 举报

 
您需要登录后才可以回帖 登录 | 注册

关于我们|手机版|麦创网 ( 苏ICP备13053101号-1

@麦创网 禁止任何未经允许的修改,传播或使用。

Powered by Discuz!

©2013 @MemacX.com. 用户言论不代表本站立场。

回顶部