麦创网

帖子
3165
金钱
90807
麦粒
15234
贡献
1066
积分
142821
扫一扫,手机访问本帖
发表于 18/1/10 08:40:21 |显示全部楼层
Cover.jpg

专辑介绍:

当今世界首席人气新进流行天王三年来全新大碟,世界最美男声震撼发声
最近五年第一销量男歌手精彩作品,展现无尽个人魅力

新专辑由著名爱尔兰音乐大师Steve Fitzmaurice全程掌控;主打白人福音和灵魂风格,比起第一张作品的流行化,这张作品明显正统和专业多了,同时内容更加深切,情感更加厚重,整张专辑恢弘大气,荡气回肠,非常让人着迷和投入,

而作为当今世界第一男声,史密斯的演唱无疑是头号重点,他的转台一如既往的出色,作为当今世界第一最美男声,声音质量依旧无比黄金,清澈无比,
高音依旧无比华丽,特别是情感投入非常出色。
专辑曲目:

1. Too Good At Goodbyes

2. Say It First

3. One Last Song

4. Midnight Train

5. Burning

6. Him

7. Baby, You Make Me Crazy

8. No Peace Feat. YEBBA

9. Palace

10. Pray

11. Nothing Left For You

12. The Thrill Of It All

13. Scars

14. One Day At A Time


Sam Smith -《The Thrill of It All》专辑下载:
游客,如果您要查看本帖隐藏内容请回复


解压密码:www.memacx.com

麦创网在线商城 更多黑苹果资源等你来! http://memacx.taobao.com
 

帖子
3165
金钱
90807
麦粒
15234
贡献
1066
积分
142821
发表于 18/1/10 08:46:02 |显示全部楼层
无损抓轨信息:
Exact Audio Copy V1.1 from 23. June 2015

EAC extraction logfile from 9. November 2017, 13:32

Sam Smith / The Thrill of It All [Special Edition]

Used drive  : slimtype eTDU108   1   Adapter: 1  ID: 0

Read mode               : Secure
Utilize accurate stream : Yes
Defeat audio cache      : Yes
Make use of C2 pointers : No

Read offset correction                      : 6
Overread into Lead-In and Lead-Out          : No
Fill up missing offset samples with silence : Yes
Delete leading and trailing silent blocks   : No
Null samples used in CRC calculations       : Yes
Used interface                              : Native Win32 interface for Win NT & 2000
Gap handling                                : Appended to previous track

Used output format              : User Defined Encoder
Selected bitrate                : 1024 kBit/s
Quality                         : High
Add ID3 tag                     : No
Command line compressor         : C:\Program Files (x86)\Exact Audio Copy\FLAC\FLAC.EXE
Additional command line options : -6 -V -T "ARTIST=%artist%" -T "TITLE=%title%" -T "ALBUM=%albumtitle%" -T "DATE=%year%" -T "TRACKNUMBER=%tracknr%" -T "GENRE=%genre%" -T "COMMENT=%comment%" -T "BAND=%albuminterpret%" -T "ALBUMARTIST=%albuminterpret%" -T "COMPOSER=%composer%" %haslyrics%--tag-from-file=LYRICS="%lyricsfile%"%haslyrics% -T "DISCNUMBER=%cdnumber%" -T "TOTALDISCS=%totalcds%" -T "TOTALTRACKS=%numtracks%" %hascover%--picture="%coverfile%"%hascover% %source% -o %dest%


TOC of the extracted CD

     Track |   Start  |  Length  | Start sector | End sector
    ---------------------------------------------------------
        1  |  0:00.00 |  3:36.30 |         0    |    16229   
        2  |  3:36.30 |  4:12.38 |     16230    |    35167   
        3  |  7:48.68 |  3:15.25 |     35168    |    49817   
        4  | 11:04.18 |  3:31.10 |     49818    |    65652   
        5  | 14:35.28 |  3:29.05 |     65653    |    81332   
        6  | 18:04.33 |  3:14.74 |     81333    |    95956   
        7  | 21:19.32 |  3:31.51 |     95957    |   111832   
        8  | 24:51.08 |  4:49.37 |    111833    |   133544   
        9  | 29:40.45 |  3:10.09 |    133545    |   147803   
       10  | 32:50.54 |  3:58.57 |    147804    |   165710   
       11  | 36:49.36 |  3:49.39 |    165711    |   182924   
       12  | 40:39.00 |  3:33.56 |    182925    |   198955   
       13  | 44:12.56 |  3:06.63 |    198956    |   212968   
       14  | 47:19.44 |  3:35.40 |    212969    |   229133   


Track  1

     Filename D:\My Music\barca008\Sam Smith - The Thrill of It All [Special Edition]\01 - Too Good At Goodbye.wav

     Pre-gap length  0:00:02.00

     Peak level 100.0 %
     Extraction speed 2.4 X
     Track quality 100.0 %
     Test CRC 6BDADA91
     Copy CRC 6BDADA91
     Track not present in AccurateRip database
     Copy OK

Track  2

     Filename D:\My Music\barca008\Sam Smith - The Thrill of It All [Special Edition]\02 - Say It First.wav

     Peak level 100.0 %
     Extraction speed 2.4 X
     Track quality 100.0 %
     Test CRC 93BC9991
     Copy CRC 93BC9991
     Track not present in AccurateRip database
     Copy OK

Track  3

     Filename D:\My Music\barca008\Sam Smith - The Thrill of It All [Special Edition]\03 - One Last Song.wav

     Peak level 100.0 %
     Extraction speed 0.3 X
     Track quality 100.0 %
     Test CRC 1725D113
     Copy CRC 1725D113
     Track not present in AccurateRip database
     Copy OK

Track  4

     Filename D:\My Music\barca008\Sam Smith - The Thrill of It All [Special Edition]\04 - Midnight Train.wav

     Peak level 99.7 %
     Extraction speed 2.2 X
     Track quality 99.9 %
     Test CRC A492C8F6
     Copy CRC A492C8F6
     Track not present in AccurateRip database
     Copy OK

Track  5

     Filename D:\My Music\barca008\Sam Smith - The Thrill of It All [Special Edition]\05 - Burning.wav

     Peak level 99.1 %
     Extraction speed 3.3 X
     Track quality 100.0 %
     Test CRC 3C24CDF9
     Copy CRC 3C24CDF9
     Track not present in AccurateRip database
     Copy OK

Track  6

     Filename D:\My Music\barca008\Sam Smith - The Thrill of It All [Special Edition]\06 - Him.wav

     Peak level 100.0 %
     Extraction speed 2.4 X
     Track quality 99.9 %
     Test CRC 0EB68394
     Copy CRC 0EB68394
     Track not present in AccurateRip database
     Copy OK

Track  7

     Filename D:\My Music\barca008\Sam Smith - The Thrill of It All [Special Edition]\07 - Baby, You Make Me Crazy.wav

     Peak level 99.5 %
     Extraction speed 2.8 X
     Track quality 100.0 %
     Test CRC 65392285
     Copy CRC 65392285
     Track not present in AccurateRip database
     Copy OK

Track  8

     Filename D:\My Music\barca008\Sam Smith - The Thrill of It All [Special Edition]\08 - No Peace.wav

     Peak level 100.0 %
     Extraction speed 3.0 X
     Track quality 99.9 %
     Test CRC CA66D622
     Copy CRC CA66D622
     Track not present in AccurateRip database
     Copy OK

Track  9

     Filename D:\My Music\barca008\Sam Smith - The Thrill of It All [Special Edition]\09 - Palace.wav

     Peak level 98.9 %
     Extraction speed 4.0 X
     Track quality 100.0 %
     Test CRC 454B0094
     Copy CRC 454B0094
     Track not present in AccurateRip database
     Copy OK

Track 10

     Filename D:\My Music\barca008\Sam Smith - The Thrill of It All [Special Edition]\10 - Pray.wav

     Peak level 100.0 %
     Extraction speed 4.3 X
     Track quality 100.0 %
     Test CRC 555F7ABB
     Copy CRC 555F7ABB
     Track not present in AccurateRip database
     Copy OK

Track 11

     Filename D:\My Music\barca008\Sam Smith - The Thrill of It All [Special Edition]\11 - Nothing Left For You.wav

     Peak level 99.9 %
     Extraction speed 3.1 X
     Track quality 99.9 %
     Test CRC D96994AD
     Copy CRC D96994AD
     Track not present in AccurateRip database
     Copy OK

Track 12

     Filename D:\My Music\barca008\Sam Smith - The Thrill of It All [Special Edition]\12 - The Thrill of It All.wav

     Peak level 98.9 %
     Extraction speed 4.4 X
     Track quality 100.0 %
     Test CRC 55A75CC5
     Copy CRC 55A75CC5
     Track not present in AccurateRip database
     Copy OK

Track 13

     Filename D:\My Music\barca008\Sam Smith - The Thrill of It All [Special Edition]\13 - Scars.wav

     Peak level 99.0 %
     Extraction speed 2.5 X
     Track quality 99.8 %
     Test CRC AC768BDE
     Copy CRC AC768BDE
     Track not present in AccurateRip database
     Copy OK

Track 14

     Filename D:\My Music\barca008\Sam Smith - The Thrill of It All [Special Edition]\14 - One Day At A Time.wav

     Peak level 99.7 %
     Extraction speed 2.8 X
     Track quality 99.9 %
     Test CRC 4C3CBE3C
     Copy CRC 4C3CBE3C
     Track not present in AccurateRip database
     Copy OK


None of the tracks are present in the AccurateRip database

No errors occurred

End of status report

---- CUETools DB Plugin V2.1.6

[CTDB TOCID: sTYNBMnYhLH5Q1mzid8LwlDiCu8-] found
Submit result: sTYNBMnYhLH5Q1mzid8LwlDiCu8- has been confirmed
Track | CTDB Status
  1   | ( 7/29) Accurately ripped
  2   | ( 7/29) Accurately ripped
  3   | ( 7/29) Accurately ripped
  4   | ( 7/29) Accurately ripped
  5   | ( 7/29) Accurately ripped
  6   | ( 7/29) Accurately ripped
  7   | ( 7/29) Accurately ripped
  8   | ( 7/29) Accurately ripped
  9   | ( 7/29) Accurately ripped
10   | ( 7/29) Accurately ripped
11   | ( 7/29) Accurately ripped
12   | ( 7/29) Accurately ripped
13   | ( 7/29) Accurately ripped
14   | ( 7/29) Accurately ripped


==== Log checksum 9955350386298B96AEBC0F68A5A138912694E613A720C9A5C4B0EAA58A78BD98 ====
麦创网在线商城 更多黑苹果资源等你来! http://memacx.taobao.com
回复

使用道具 举报

 

帖子
36
金钱
27
麦粒
0
贡献
0
积分
63
发表于 18/1/30 01:02:28 |显示全部楼层
回复

使用道具 举报

 
您需要登录后才可以回帖 登录 | 注册

关于我们|手机版|麦创网 ( 苏ICP备13053101号-1

@麦创网 禁止任何未经允许的修改,传播或使用。

Powered by Discuz!

©2013 @MemacX.com. 用户言论不代表本站立场。

回顶部